[PV] [MUSIC VIDEO] LE SSERAFIM (르세라핌) – Perfect Night (2023.11.03/MP4/RAR)

lovejp

Elite Member
Contributor
Mar 19, 2015
31,837
205
1.jpg


르세라핌 (LE SSERAFIM) Perfect Night [Bugs! MD5.DE5BDA7114CEE4FF4EA2B6810C5EE296].mp4 1.70 GB


르세라핌 (LE SSERAFIM) Perfect Night [Bugs! MD5.DE5BDA7114CEE4FF4EA2B6810C5EE296].mp4 1.70 GB


Format : MPEG-4
Format profile : Base Media / Version 2
Codec ID : mp42 (mp42/mp41)
File size : 1.70 GiB
Duration : 3 min 2 s
Overall bit rate mode : Variable
Overall bit rate : 80.3 Mb/s
Encoded date : UTC 2023-10-24 09:09:59
Tagged date : UTC 2023-10-24 09:14:04
TIM : 00:00:01:00
TSC : 24
TSZ : 1


Video
ID : 1
Format : AVC
Format/Info : Advanced Video Codec
Format profile : [email protected]
Format settings : CABAC / 4 Ref Frames
Format settings, CABAC : Yes
Format settings, Reference frames : 4 frames
Codec ID : avc1
Codec ID/Info : Advanced Video Coding
Duration : 3 min 2 s
Bit rate mode : Constant
Bit rate : 80.0 Mb/s
Width : 3 840 pixels
Height : 2 160 pixels
Display aspect ratio : 16:9
Frame rate mode : Constant
Frame rate : 24.000 FPS
Color space : YUV
Chroma subsampling : 4:2:0
Bit depth : 8 bits
Scan type : Progressive
Bits/(Pixel*Frame) : 0.402
Stream size : 1.70 GiB (100%)
Language : English
Encoded date : UTC 2023-10-24 09:10:04
Tagged date : UTC 2023-10-24 09:10:04
Color range : Limited
Color primaries : BT.709
Transfer characteristics : BT.709
Matrix coefficients : BT.709
Codec configuration box : avcC


Audio
ID : 2
Format : AAC LC
Format/Info : Advanced Audio Codec Low Complexity
Codec ID : mp4a-40-2
Duration : 3 min 2 s
Source duration : 3 min 2 s
Bit rate mode : Variable
Bit rate : 317 kb/s
Maximum bit rate : 482 kb/s
Channel(s) : 2 channels
Channel layout : L R
Sampling rate : 48.0 kHz
Frame rate : 46.875 FPS (1024 SPF)
Compression mode : Lossy
Stream size : 6.90 MiB (0%)
Source stream size : 6.90 MiB (0%)
Language : English
Encoded date : UTC 2023-10-24 09:10:02
Tagged date : UTC 2023-10-24 09:10:02

RG (RapidGator)
LE_SSERAFIM_-_Perfect_Night_Bugs_MD5.DE5BDA7114CEE4FF4EA2B6810C5EE296.part1.rar
LE_SSERAFIM_-_Perfect_Night_Bugs_MD5.DE5BDA7114CEE4FF4EA2B6810C5EE296.part2.rar
LE_SSERAFIM_-_Perfect_Night_Bugs_MD5.DE5BDA7114CEE4FF4EA2B6810C5EE296.part3.rar
KF (KatFile)
LE_SSERAFIM_-_Perfect_Night_Bugs_MD5.DE5BDA7114CEE4FF4EA2B6810C5EE296.part1.rar - 810.0 MB
LE_SSERAFIM_-_Perfect_Night_Bugs_MD5.DE5BDA7114CEE4FF4EA2B6810C5EE296.part2.rar - 810.0 MB
LE_SSERAFIM_-_Perfect_Night_Bugs_MD5.DE5BDA7114CEE4FF4EA2B6810C5EE296.part3.rar - 124.3 MB
MS (MexaShare)
LE_SSERAFIM_-_Perfect_Night_Bugs_MD5.DE5BDA7114CEE4FF4EA2B6810C5EE296.part1.rar - 810.0 MB
LE_SSERAFIM_-_Perfect_Night_Bugs_MD5.DE5BDA7114CEE4FF4EA2B6810C5EE296.part2.rar - 810.0 MB
LE_SSERAFIM_-_Perfect_Night_Bugs_MD5.DE5BDA7114CEE4FF4EA2B6810C5EE296.part3.rar - 124.3 MB
FP (FikPer)
LE_SSERAFIM_-_Perfect_Night_Bugs_MD5.DE5BDA7114CEE4FF4EA2B6810C5EE296.part1.rar
LE_SSERAFIM_-_Perfect_Night_Bugs_MD5.DE5BDA7114CEE4FF4EA2B6810C5EE296.part2.rar
LE_SSERAFIM_-_Perfect_Night_Bugs_MD5.DE5BDA7114CEE4FF4EA2B6810C5EE296.part3.rar
 

Users who are viewing this thread

Latest profile posts

Seiki wrote on Otokonoko's profile.
Could you reupload RJ417904 ?
TheFihr wrote on Esan's profile.
[110526][May-Be SOFT] へんし~ん!!!~パンツになってクンクンペロペロ~ ワン・ツー・パック!
Mexashare and Katfile links are borken can we get re-upload?
hc1992 wrote on Otokonoko's profile.
Hi, almost RJ01034281 mexa links are dead, please could you reupload these?
yan_yan wrote on Ryzen111's profile.
Sorry, Could you please re-upload RJ01133991 ?

☄️RELEASE☄️[231229][メスイキラボ] 【メスイキ地獄】究極のガチイキメソッド本 ちんぽメスイキ・潮吹き乳首イキ メスイキ性感開発バイブル編
jike1233 wrote on Shine's profile.
would you update this file [May] 八星帝 [RJ01004084].the old download link is 404 and the newest version is 1.70