Results 1 to 1 of 1
  1. #1
    ┐(´∀`)┌ヤレヤ レ Quas's Avatar
    Join Date
    Sep 2011
    Location
    京都市、京都、日本
    Posts
    699
    Thanks
    2
    Thanked 447 Times in 276 Posts
    Points: 49,478, Level: 100
    Points: 49,478, Level: 100
    Overall activity: 0%
    Overall activity: 0%
    Achievements:
    Three FriendsTagger First Class25000 Experience PointsVeteranRecommendation Second Class

    [120321] Rita - MemoRia [WAV + MP3]





    Release info: Lossless/wav + Lossy/pending + Scans/png

    曲目リスト
    ■Disc1
    1.MemoRia
    作詞:こだまさおり 作曲・編曲:ぺさま
    2.JEWELRY HALATION
    作詞:こだまさおり 作曲・編曲:木ノ下慶行
    3.桜の風
    作詞・作曲:shilo 編曲:伊藤賢
    4.さがしにいこうよ
    作詞・作曲:松井洋平 編曲:石川智久
    5.変わらない奇跡
    作詞:綾葉 作曲・編曲:鈴木達也
    6.Every My Dear
    作詞・作曲:瀬名 編曲:NOIZ’n GIRL
    7.ミニシアター
    作詞・作曲・編曲:片山義美
    8.Id + air ~イデア~
    作詞:松井洋平 作曲・編曲:川野勝広
    9.輝きの未来
    作詞・作曲:瀬名 編曲:大野宏明
    10.I Will
    作詞・作曲・編曲:shilo
    11.風の吹くほうへ
    作詞:Rita 作曲:しほり 編曲:福富雅之
    12.きっと、ずっと(Bonus Track)
    作詞:大澤ユキヲ 作詞・編曲:沙雪ヒロノ

    ■Disc2 ~Additional LIVE CD ~
    ※2012年2月13日(月)「代官山:晴れたら空に豆まいて」で行われた
    ライブ音源を抜粋収録しています。

    1.Sweet Outbreak
    作詞:元長柾木 作曲・編曲:33rpm
    2.ta eschata
    作詞:Rita 作曲・編曲:松本慎一郎
    3.dorchadas
    作詞:Rita 作曲・編曲:内山利彦(Blueberry&Yogurt)
    4.シリウス
    作詞:Rita 作曲・編曲:内山利彦(Blueberry&Yogurt)
    5.end of misery
    作詞:Rita 作曲・編曲:内山利彦(Blueberry&Yogurt)
    6.It's just a farewell
    作詞:Rita 作曲・編曲:内山利彦(Blueberry&Yogurt)

      Spoiler: Cuesheet 


    Disc 1

    REM DATE 2012
    REM DISCID AF0C4F0C
    REM COMMENT "ExactAudioCopy v1.0b3"
    CATALOG 4540774151981
    PERFORMER "Rita"
    TITLE "MemoRia"
    FILE "Rita - MemoRia Disc 1.wav" WAVE
    TRACK 01 AUDIO
    TITLE "MemoRia"
    PERFORMER "Rita"
    ISRC JPI101200379
    INDEX 01 00:00:00
    TRACK 02 AUDIO
    TITLE "JEWELRY HALATION"
    PERFORMER "Rita"
    ISRC JPI101001539
    INDEX 00 04:50:11
    INDEX 01 04:52:59
    TRACK 03 AUDIO
    TITLE "桜の風"
    PERFORMER "Rita"
    ISRC JPI101200380
    INDEX 00 08:42:02
    INDEX 01 08:44:51
    TRACK 04 AUDIO
    TITLE "さがしにいこうよ"
    PERFORMER "Rita"
    ISRC JPI101200381
    INDEX 00 12:43:19
    INDEX 01 12:45:67
    TRACK 05 AUDIO
    TITLE "変わらない奇跡"
    PERFORMER "Rita"
    ISRC JPI101001540
    INDEX 00 17:45:04
    INDEX 01 17:47:52
    TRACK 06 AUDIO
    TITLE "Every My Dear"
    PERFORMER "Rita"
    ISRC JPI101101506
    INDEX 00 22:50:69
    INDEX 01 22:53:43
    TRACK 07 AUDIO
    TITLE "ミニシアター"
    PERFORMER "Rita"
    ISRC JPI101200382
    INDEX 00 26:54:39
    INDEX 01 26:57:13
    TRACK 08 AUDIO
    TITLE "Id+air ~イデア~"
    PERFORMER "Rita"
    ISRC JPI101200383
    INDEX 00 30:03:09
    INDEX 01 30:05:58
    TRACK 09 AUDIO
    TITLE "輝きの未来"
    PERFORMER "Rita"
    ISRC JPI101101505
    INDEX 00 34:34:19
    INDEX 01 34:36:68
    TRACK 10 AUDIO
    TITLE "I Will"
    PERFORMER "Rita"
    ISRC JPI101200384
    INDEX 00 39:15:70
    INDEX 01 39:18:44
    TRACK 11 AUDIO
    TITLE "風の吹く方へ"
    PERFORMER "Rita"
    ISRC JPI101200385
    INDEX 00 44:02:61
    INDEX 01 44:05:35
    TRACK 12 AUDIO
    TITLE "きっと、ずっと"
    PERFORMER "Rita"
    ISRC JPI101200386
    INDEX 00 48:26:55
    INDEX 01 48:29:29


    Disc 2

    REM DATE 2012
    REM DISCID 45070306
    REM COMMENT "ExactAudioCopy v1.0b3"
    PERFORMER "Rita"
    TITLE "MemoRia Disc 2"
    FILE "Rita - MemoRia Disc 2.wav" WAVE
    TRACK 01 AUDIO
    TITLE "Sweet Outbreak"
    PERFORMER "Rita"
    ISRC JPI101200387
    INDEX 01 00:00:00
    TRACK 02 AUDIO
    TITLE "ta eschata"
    PERFORMER "Rita"
    ISRC JPI101200388
    INDEX 00 04:58:52
    INDEX 01 05:00:26
    TRACK 03 AUDIO
    TITLE "dorchadas"
    PERFORMER "Rita"
    ISRC JPI101200389
    INDEX 00 08:45:18
    INDEX 01 08:46:66
    TRACK 04 AUDIO
    TITLE "シリウス"
    PERFORMER "Rita"
    ISRC JPI101200390
    INDEX 00 13:32:22
    INDEX 01 13:33:70
    TRACK 05 AUDIO
    TITLE "end of misery"
    PERFORMER "Rita"
    ISRC JPI101200391
    INDEX 00 18:04:25
    INDEX 01 18:05:73
    TRACK 06 AUDIO
    TITLE "It's just a farewell"
    PERFORMER "Rita"
    ISRC JPI101200392
    INDEX 00 24:32:06
    INDEX 01 24:33:54




    Lossless (WAV):
    DP: http://depositfiles.com/files/s4f9rrixv
    RG: Pending

    Lossy (MP3):
    DP: Pending
    RG: Pending

    Scans (PNG)
    DP: http://depositfiles.com/files/a12twgubu
    Ignore This Signature
    ?ヾ(゚ー゚ヾ)^? さぁ・・・?

  2. The Following User Says Thank You to Quas For This Useful Post:


  3. # ADS
    Circuit advertisement
    Join Date
    Always
    Location
    Advertising world
    Posts
    Many
     

Thread Information

Users Browsing this Thread

There are currently 1 users browsing this thread. (0 members and 1 guests)

Similar Threads

  1. Replies: 3
    Last Post: August 30th, 2013, 09:02 AM
  2. Replies: 2
    Last Post: March 19th, 2012, 08:19 PM
  3. [Album] [ASL] Rita - Mjuka [MP3]
    By kactaplb in forum Non-OST music
    Replies: 0
    Last Post: February 2nd, 2012, 05:05 PM
  4. [Single] [ASL] Rita - Kagayaki no Mirai Every my Dear [MP3]
    By kactaplb in forum Game OSTs
    Replies: 0
    Last Post: January 8th, 2012, 07:53 PM
  5. [Single] [ASL] Rita - Oniuta. Bonus CD - Onigoto. [MP3] [w Scans]
    By strayer in forum Game OSTs
    Replies: 0
    Last Post: October 31st, 2011, 03:49 AM

Tags for this Thread

Bookmarks

Posting Permissions

  • You may not post new threads
  • You may not post replies
  • You may not post attachments
  • You may not edit your posts
  •