Results 1 to 3 of 3
  1. #1
    Member
    Join Date
    Feb 2012
    Location
    Sol Eternia
    Posts
    36
    Thanks
    2
    Thanked 6 Times in 3 Posts
    Points: 7,732, Level: 58
    Points: 7,732, Level: 58
    Overall activity: 0%
    Overall activity: 0%
    Achievements:
    Tagger Second ClassVeteran5000 Experience Points

    [REQ] Miracle! Portable☆Mission / nao [FLAC]

    Hi, could you guys help me to find this?
    http://vgmdb.net/album/41581
    Lossless is preferred.
    I apologise if this request was made too soon after the release date.
    Thanks!

  2. # ADS
    Circuit advertisement
    Join Date
    Always
    Location
    Advertising world
    Posts
    Many
     

  3. #2
    ASL Staff Yarukinasu's Avatar
    Join Date
    Jun 2012
    Location
    Las Vegas, Nevada
    Age
    28
    Posts
    195
    Thanks
    0
    Thanked 200 Times in 114 Posts
    Points: 7,367, Level: 57
    Points: 7,367, Level: 57
    Overall activity: 0%
    Overall activity: 0%
    Achievements:
    Three FriendsTagger First Class5000 Experience PointsVeteran

    Re: [REQ] Miracle! Portable☆Mission / nao [FLAC]

    nao - ミラクル!ぽーたぶる☆ミッション (flac+cue+rr3).rar 136.6 MB
    https://mega.co.nz/#!xpN21QxA!XAThd00HXB3h5PCbmuD9QGAG1aFQABZ2s9x15ZMT76g

      Spoiler: Nothing to see here 
    Code:
    Exact Audio Copy V1.0 beta 3 from 29. August 2011
    
    EAC extraction logfile from 30. November 2013, 4:33
    
    nao / ミラクル!ぽーたぶる☆ミッション
    
    Used drive  : PIONEER DVD-RW  DVR-215D   Adapter: 1  ID: 0
    
    Read mode               : Secure
    Utilize accurate stream : Yes
    Defeat audio cache      : Yes
    Make use of C2 pointers : No
    
    Read offset correction                      : 48
    Overread into Lead-In and Lead-Out          : No
    Fill up missing offset samples with silence : Yes
    Delete leading and trailing silent blocks   : No
    Null samples used in CRC calculations       : Yes
    Used interface                              : Native Win32 interface for Win NT & 2000
    Gap handling                                : Appended to previous track
    
    Used output format : Internal WAV Routines
    Sample format      : 44.100 Hz; 16 Bit; Stereo
    
    
    TOC of the extracted CD
    
         Track |   Start  |  Length  | Start sector | End sector 
        ---------------------------------------------------------
            1  |  0:00.00 |  3:51.13 |         0    |    17337   
            2  |  3:51.13 |  4:39.53 |     17338    |    38315   
            3  |  8:30.66 |  3:51.05 |     38316    |    55645   
            4  | 12:21.71 |  4:37.51 |     55646    |    76471   
    
    
    Track  1
    
         Filename C:\ミラクル!ぽーたぶる☆ミッション\01 ミラクル!ぽーたぶる☆ミッション.wav
    
         Pre-gap length  0:00:02.00
    
         Peak level 99.5 %
         Extraction speed 29.0 X
         Track quality 100.0 %
         Test CRC BD0C4C86
         Copy CRC BD0C4C86
         Copy OK
    
    Track  2
    
         Filename C:\ミラクル!ぽーたぶる☆ミッション\02 My Dear, ~5pb.ちゃん feat. nao~.wav
    
         Pre-gap length  0:00:01.89
    
         Peak level 95.7 %
         Extraction speed 25.8 X
         Track quality 100.0 %
         Test CRC C225CE8D
         Copy CRC C225CE8D
         Copy OK
    
    Track  3
    
         Filename C:\ミラクル!ぽーたぶる☆ミッション\03 ミラクル!ぽーたぶる☆ミッション (off vocal).wav
    
         Pre-gap length  0:00:01.89
    
         Peak level 100.0 %
         Extraction speed 23.9 X
         Track quality 99.9 %
         Test CRC FD87B74E
         Copy CRC FD87B74E
         Copy OK
    
    Track  4
    
         Filename C:\ミラクル!ぽーたぶる☆ミッション\04 My Dear, ~5pb.ちゃん feat. nao~ (off vocal).wav
    
         Pre-gap length  0:00:01.89
    
         Peak level 95.2 %
         Extraction speed 27.2 X
         Track quality 100.0 %
         Test CRC BF983E1C
         Copy CRC BF983E1C
         Copy OK
    
    No errors occurred
    
    End of status report

  4. The Following User Says Thank You to Yarukinasu For This Useful Post:


  5. #3
    Member
    Join Date
    Feb 2012
    Location
    Sol Eternia
    Posts
    36
    Thanks
    2
    Thanked 6 Times in 3 Posts
    Points: 7,732, Level: 58
    Points: 7,732, Level: 58
    Overall activity: 0%
    Overall activity: 0%
    Achievements:
    Tagger Second ClassVeteran5000 Experience Points

    Re: [REQ] Miracle! Portable☆Mission / nao [FLAC]

    Think anyone can upload this as official ASL release with English tags?

Thread Information

Users Browsing this Thread

There are currently 1 users browsing this thread. (0 members and 1 guests)

Similar Threads

  1. Replies: 1
    Last Post: August 2nd, 2013, 09:00 PM
  2. [REQ] Hiiragi Nao
    By kurogashi in forum Music Request
    Replies: 0
    Last Post: December 20th, 2012, 06:50 AM
  3. Replies: 0
    Last Post: May 18th, 2012, 02:45 PM
  4. Replies: 0
    Last Post: August 5th, 2011, 02:30 AM
  5. [Req] Nao Discography
    By Fincher in forum Music Request
    Replies: 2
    Last Post: May 20th, 2011, 02:19 PM

Tags for this Thread

Bookmarks

Posting Permissions

  • You may not post new threads
  • You may not post replies
  • You may not post attachments
  • You may not edit your posts
  •