Results 1 to 1 of 1
  1. #1
    Senior Member DerDor's Avatar
    Join Date
    Jul 2017
    Posts
    1,957
    Thanks
    0
    Thanked 704 Times in 515 Posts
    Points: 49,743, Level: 100
    Points: 49,743, Level: 100
    Overall activity: 0%
    Overall activity: 0%
    Achievements:
    Tagger First Class25000 Experience Points1 year registered

    Goku Sayonara Zetsubou Sensei [Blu-Ray]


    INFO
    Main Title: Goku Sayonara Zetsubou Sensei
    Official Title: 獄・さよなら絶望先生
    Altenetive Title: Sayonara Zetsubou Sensei OAD, Goodbye Mr. Despair OVA, 狱·再见! 绝望老师
    Episodes: 3
    Aired: Oct 17, 2008 to Feb 17, 2009
    Studios: Shaft
    Source: Manga
    Genres: Comedy, High School, Manga, Parody, School Life, Shounen
    Duration: 25 min. per ep.

    Translation: gg

    SYNOPSIS
    A continuation of Zoku Sayonara Zetsubou Sensei, with more stories revolving around Nozomu Itoshiki, the extremely pessimistic or despairing teacher, and the students of class 2-H, who are each hilariously abnormal in their own unique way except for the one relatively normal girl who hates being called normal.

      Spoiler: Download (Rapidgator) 
    Code:
    https://rapidgator.net/file/6d8c6fa9c7e6625182aec907ab22d300/Goku_Sayonara_Zetsubou_Sensei_-_01_(BD_1280x720_x264_AAC)_[EC18711E].mkv.html
    https://rapidgator.net/file/9f110217740fa2c0b9dd2e07bb372d12/Goku_Sayonara_Zetsubou_Sensei_-_02_(BD_1280x720_x264_AAC)_[7303476B].mkv.html
    https://rapidgator.net/file/b2544f528787afe02ce8c918cb6dd6ff/Goku_Sayonara_Zetsubou_Sensei_-_03_(BD_1280x720_x264_AAC)_[DA5F8783].mkv.html

      Spoiler: Download (Mexashare) 
    Code:
    http://www.mexashare.com/wjpd1ko5bqd6/Goku_Sayonara_Zetsubou_Sensei_-_01_(BD_1280x720_x264_AAC)_[EC18711E].mkv
    http://www.mexashare.com/4jwgs98hi6mj/Goku_Sayonara_Zetsubou_Sensei_-_02_(BD_1280x720_x264_AAC)_[7303476B].mkv
    http://www.mexashare.com/5838nj35d41j/Goku_Sayonara_Zetsubou_Sensei_-_03_(BD_1280x720_x264_AAC)_[DA5F8783].mkv

      Spoiler: Download (Katfile) 
    Code:
    http://katfile.com/4lg39zeozlsp/Goku_Sayonara_Zetsubou_Sensei_-_01_(BD_1280x720_x264_AAC)_[EC18711E].mkv.html
    http://katfile.com/632896peg44o/Goku_Sayonara_Zetsubou_Sensei_-_02_(BD_1280x720_x264_AAC)_[7303476B].mkv.html
    http://katfile.com/6iz8egkq2xpz/Goku_Sayonara_Zetsubou_Sensei_-_03_(BD_1280x720_x264_AAC)_[DA5F8783].mkv.html

    Screenshots
    File info
    Video: H264 1280x720, VFR (~2755 kb/s)
    Audio: Japanese, 2.0 AAC (~205 kb/s)
    Subtitle: English soft styled subs (ASS)

      Spoiler: Media info 
    Code:
    Format                                   : Matroska
    Format version                           : Version 4 / Version 2
    File size                                : 505 MiB
    Duration                                 : 23 min 41 s
    Overall bit rate                         : 2 984 kb/s
    Encoded date                             : UTC 2015-05-15 21:07:58
    Writing application                      : mkvmerge v7.0.0 ('Where We Going') 32bit built on Jun  9 2014 15:08:34
    Writing library                          : libebml v1.3.0 + libmatroska v1.4.1
    Attachments                              : ABSCI_.TTF / AbyssEPTitleFont.ttf / AeroDB_Normal.ttf / AntiqueOliveOil.ttf / badankadonk.ttf / BAKESBR.TTF / BALZANO.TTF / BEATSVIL.TTF / BeinetCondensed-Normal.ttf / Blokletters-Balpen.ttf / CelestiaAntiquaStd.ttf / CerigoStd-MediumM.ttf / Clearface_SSi_Bold.ttf / ClearfaceGothicLTStd-Light.ttf / Complete in Him.ttf / Coving01.ttf / CREABBRG.TTF / cronos13b.ttf / DREAMOFM.TTF / Dupree.ttf / EFFLORES.TTF / elect.ttf / erasdus0.ttf / fawn.ttf / Forgotte.ttf / FrancophilSans_0.ttf / FrancophilSans-Bold.ttf / Friday13v12.ttf / FRML436N.TTF / GILB____.TTF / GILBI___.TTF / HAPPY_HELL.TTF / HoboStd.otf / HOLIABD.TTF / CheapSignage_Standard.ttf / CHINT_.TTF / CHOLO__.ttf / JANIHB.TTF / Kan2EngGSZS3.ttf / Kan2EngGSZS4.ttf / LT_0.TTF / LT_1.TTF / Montara-Gothic.ttf / MyriadTiltRE.ttf / mysticsingler.ttf / negotiate free.ttf / SERIM__.ttf / SF Junk Culture.ttf / ShakeAndBake.ttf / svenings.ttf / VIPER__.TTF
    
    Video
    ID                                       : 1
    Format                                   : AVC
    Format/Info                              : Advanced Video Codec
    Format profile                           : Main@L4.1
    Format settings, CABAC                   : Yes
    Format settings, RefFrames               : 5 frames
    Codec ID                                 : V_MPEG4/ISO/AVC
    Duration                                 : 23 min 40 s
    Bit rate                                 : 2 755 kb/s
    Width                                    : 1 280 pixels
    Height                                   : 720 pixels
    Display aspect ratio                     : 16:9
    Frame rate mode                          : Variable
    Frame rate                               : 27.005 FPS
    Color space                              : YUV
    Chroma subsampling                       : 4:2:0
    Bit depth                                : 8 bits
    Scan type                                : Progressive
    Bits/(Pixel*Frame)                       : 0.111
    Stream size                              : 467 MiB (92%)
    Writing library                          : x264 core 128
    Encoding settings                        : cabac=1 / ref=6 / deblock=1:0:0 / analyse=0x1:0x111 / me=umh / subme=9 / psy=1 / psy_rd=1.00:0.00 / mixed_ref=1 / me_range=32 / chroma_me=1 / trellis=1 / 8x8dct=0 / cqm=0 / deadzone=21,11 / fast_pskip=1 / chroma_qp_offset=-2 / threads=12 / lookahead_threads=2 / sliced_threads=0 / nr=0 / decimate=1 / interlaced=0 / bluray_compat=1 / constrained_intra=0 / bframes=3 / b_pyramid=1 / b_adapt=1 / b_bias=0 / direct=1 / weightb=1 / open_gop=0 / weightp=1 / keyint=250 / keyint_min=1 / scenecut=40 / intra_refresh=0 / rc_lookahead=40 / rc=crf / mbtree=1 / crf=18.0 / qcomp=0.60 / qpmin=0 / qpmax=69 / qpstep=4 / ip_ratio=1.40 / aq=1:1.00
    Default                                  : Yes
    Forced                                   : No
    
    Audio
    ID                                       : 2
    Format                                   : AAC
    Format/Info                              : Advanced Audio Codec
    Format profile                           : LC
    Codec ID                                 : A_AAC
    Duration                                 : 23 min 41 s
    Bit rate                                 : 205 kb/s
    Channel(s)                               : 2 channels
    Channel positions                        : Front: L R
    Sampling rate                            : 48.0 kHz
    Frame rate                               : 46.875 FPS (1024 SPF)
    Compression mode                         : Lossy
    Stream size                              : 34.7 MiB (7%)
    Default                                  : Yes
    Forced                                   : No
    
    Text
    ID                                       : 3
    Format                                   : ASS
    Codec ID                                 : S_TEXT/ASS
    Codec ID/Info                            : Advanced Sub Station Alpha
    Duration                                 : 23 min 39 s
    Bit rate                                 : 387 b/s
    Count of elements                        : 750
    Compression mode                         : Lossless
    Stream size                              : 67.2 KiB (0%)
    Title                                    : [gg]
    Language                                 : English
    Default                                  : Yes
    Forced                                   : No
    Last edited by DerDor; September 26th, 2017 at 11:19 AM. Reason: links updated

  2. # ADS
    Circuit advertisement
    Join Date
    Always
    Posts
    Many
     

Thread Information

Users Browsing this Thread

There are currently 1 users browsing this thread. (0 members and 1 guests)

Similar Threads

  1. [480p] [gg] Goku Sayonara Zetsubou Sensei
    By corocoro in forum Movies & OVAs
    Replies: 12
    Last Post: June 11th, 2016, 09:13 AM
  2. [Various] [Various] Zoku Sayonara Zetsubou Sensei
    By corocoro in forum Completed Series
    Replies: 13
    Last Post: March 30th, 2016, 12:38 PM
  3. [480p] [gg] Zan Sayonara Zetsubou Sensei
    By corocoro in forum Completed Series
    Replies: 10
    Last Post: March 30th, 2016, 11:35 AM
  4. [576p] [nonA] Sayonara Zetsubou Sensei [Bluray]
    By corocoro in forum Completed Series
    Replies: 16
    Last Post: March 30th, 2016, 10:57 AM
  5. [REQ] Sayonara Zetsubou Sensei series
    By JFreak in forum Filled Requests
    Replies: 2
    Last Post: January 5th, 2012, 01:56 PM

Tags for this Thread

Bookmarks

Posting Permissions

  • You may not post new threads
  • You may not post replies
  • You may not post attachments
  • You may not edit your posts
  •