Results 1 to 1 of 1
  1. #1
    Senior Member DerDor's Avatar
    Join Date
    Jul 2017
    Posts
    1,957
    Thanks
    0
    Thanked 704 Times in 515 Posts
    Points: 49,743, Level: 100
    Points: 49,743, Level: 100
    Overall activity: 0%
    Overall activity: 0%
    Achievements:
    Tagger First Class25000 Experience Points1 year registered

    Other [naisho] King of Prism by Pretty Rhythm [Blu-Ray]


    INFO
    Official Title: King of Prism by Pretty Rhythm
    Premiere: Jan 9, 2016
    Studios: Tatsunoko Production
    Source: Original
    Genres: Shoujo, Idols, Music
    Duration: 59 min.

    Group: naisho

    SYNOPSIS
    The unit Over The Rainbow succeeds in its debut. Aiming to become like the boy band, more students enroll in Edel Rose. Hiro and the others begin practice for the Prism King Cup, an event that is held once every four years. However, a rival called "Schwarz Rose" appears... Who will become the Prism King, the one who can make girls' hearts throb the most!?

      Spoiler: Download (Rapidgator) 
    Code:
    https://rg.to/file/180edc2b5cb71d36bc0f2c9b6f49d5f3/[naisho]_King_of_Prism_by_Pretty_Rhythm_[BD_720p_AAC].part1.rar.html
    https://rg.to/file/239165c02d427825b06fdf342bf51b44/[naisho]_King_of_Prism_by_Pretty_Rhythm_[BD_720p_AAC].part2.rar.html

      Spoiler: Download (Katfile) 
    Code:
    http://katfile.com/7sm40nj8tjh3/[naisho]_King_of_Prism_by_Pretty_Rhythm_[BD_720p_AAC].part1.rar.html
    http://katfile.com/ks0w03xluyri/[naisho]_King_of_Prism_by_Pretty_Rhythm_[BD_720p_AAC].part2.rar.html



    Screenshots
    File info
    Video: 1280x720 h.264 10-bit (~3818 kBit/s)
    Audio: Japanese 2.0 (~280 kBit/s)
    Subtitle: English styled soft-subs (ASS)

      Spoiler: Media info 
    Code:
    Format                                   : Matroska
    Format version                           : Version 4 / Version 2
    File size                                : 1.71 GiB
    Duration                                 : 58 min 55 s
    Overall bit rate                         : 4 164 kb/s
    Encoded date                             : UTC 2016-06-30 23:49:57
    Writing application                      : mkvmerge v7.9.0 ('Birds') 64bit
    Writing library                          : libebml v1.3.1 + libmatroska v1.4.2
    Attachments                              : CAC MOOSE.TTF / cambria_0.ttc / candarab_2.ttf / candaraz_2.ttf / EFFLB.TTF / gnyrwn971.ttf / KBPlanetEarth_1.ttf / montara-gothic-webfont_1.ttf / msjh.ttc / mvboli.ttf / palab.ttf / palabi.ttf / sylfaen_0.ttf / ufonts.com_grenoble-serial-medium-regular_0.ttf / Aero.ttf / A-OTF-HarucraftStd-Heavy.otf / Basset Regular.ttf / big_noodle_titling_oblique.ttf / BigSky.ttf
    
    Video
    ID                                       : 1
    Format                                   : AVC
    Format/Info                              : Advanced Video Codec
    Format profile                           : High 10@L5
    Format settings, CABAC                   : Yes
    Format settings, RefFrames               : 16 frames
    Codec ID                                 : V_MPEG4/ISO/AVC
    Duration                                 : 58 min 55 s
    Bit rate                                 : 3 818 kb/s
    Width                                    : 1 280 pixels
    Height                                   : 720 pixels
    Display aspect ratio                     : 16:9
    Frame rate mode                          : Constant
    Frame rate                               : 23.976 (24000/1001) FPS
    Color space                              : YUV
    Chroma subsampling                       : 4:2:0
    Bit depth                                : 10 bits
    Scan type                                : Progressive
    Bits/(Pixel*Frame)                       : 0.173
    Stream size                              : 1.57 GiB (92%)
    Title                                    : hurf
    Writing library                          : x264 core 148 r2692+54 69a6f49 t_mod_Custom [10-bit@all X86_64]
    Encoding settings                        : cabac=1 / ref=16 / deblock=1:0:0 / analyse=0x3:0x133 / me=umh / subme=10 / psy=1 / fade_compensate=0.70 / psy_rd=0.80:0.10 / mixed_ref=1 / me_range=24 / chroma_me=1 / trellis=2 / 8x8dct=1 / cqm=0 / deadzone=21,11 / fast_pskip=1 / chroma_qp_offset=-3 / threads=12 / lookahead_threads=3 / sliced_threads=0 / nr=0 / decimate=1 / interlaced=0 / bluray_compat=0 / constrained_intra=0 / fgo=0 / bframes=16 / b_pyramid=2 / b_adapt=2 / b_bias=0 / direct=3 / weightb=1 / open_gop=0 / weightp=2 / keyint=250 / keyint_min=23 / scenecut=40 / intra_refresh=0 / rc_lookahead=60 / rc=crf / mbtree=1 / crf=14.2000 / qcomp=0.76 / qpmin=0:0:0 / qpmax=81:81:81 / qpstep=4 / ip_ratio=1.40 / aq=3:0.75 / aq-sensitivity=10.00 / aq-factor=1.00:1.00:1.00 / aq2=0 / aq3=0
    Language                                 : Japanese
    Default                                  : Yes
    Forced                                   : No
    Color range                              : Limited
    Color primaries                          : BT.709
    Transfer characteristics                 : BT.709
    Matrix coefficients                      : BT.709
    
    Audio
    ID                                       : 2
    Format                                   : AAC
    Format/Info                              : Advanced Audio Codec
    Format profile                           : LC
    Codec ID                                 : A_AAC
    Duration                                 : 58 min 55 s
    Bit rate                                 : 280 kb/s
    Channel(s)                               : 2 channels
    Channel positions                        : Front: L R
    Sampling rate                            : 48.0 kHz
    Frame rate                               : 46.875 FPS (1024 SPF)
    Compression mode                         : Lossy
    Stream size                              : 118 MiB (7%)
    Title                                    : durf
    Language                                 : Japanese
    Default                                  : Yes
    Forced                                   : No
    
    Text
    ID                                       : 3
    Format                                   : ASS
    Codec ID                                 : S_TEXT/ASS
    Codec ID/Info                            : Advanced Sub Station Alpha
    Duration                                 : 58 min 3 s
    Bit rate                                 : 1 435 b/s
    Count of elements                        : 3993
    Compression mode                         : Lossless
    Stream size                              : 610 KiB (0%)
    Default                                  : Yes
    Forced                                   : No
    Last edited by DerDor; March 19th, 2018 at 01:25 PM. Reason: links updated

  2. # ADS
    Circuit advertisement
    Join Date
    Always
    Posts
    Many
     

Thread Information

Users Browsing this Thread

There are currently 1 users browsing this thread. (0 members and 1 guests)

Similar Threads

  1. Replies: 2
    Last Post: July 12th, 2018, 04:58 PM
  2. Replies: 0
    Last Post: July 7th, 2017, 04:15 PM
  3. Replies: 0
    Last Post: March 10th, 2016, 02:45 AM
  4. Replies: 21
    Last Post: November 20th, 2015, 05:37 PM
  5. Replies: 13
    Last Post: May 6th, 2015, 12:18 AM

Bookmarks

Posting Permissions

  • You may not post new threads
  • You may not post replies
  • You may not post attachments
  • You may not edit your posts
  •