Results 1 to 1 of 1
  1. #1
    Senior Member DerDor's Avatar
    Join Date
    Jul 2017
    Posts
    1,957
    Thanks
    0
    Thanked 704 Times in 515 Posts
    Points: 49,743, Level: 100
    Points: 49,743, Level: 100
    Overall activity: 0%
    Overall activity: 0%
    Achievements:
    Tagger First Class25000 Experience Points1 year registered

    Hokuto no Ken / Fist of the North Star (1986)


    INFO
    Official Title: 北斗の拳
    Alternative Tiles: Fist of the North Star: The Movie, Hokuto no Ken (1986)
    Aired: Mar 8, 1986
    Studios: Toei Animation
    Source: Manga
    Genres: action, martial arts, post-apocalypse, Sci-Fi, shounen, violence
    Duration: 1 hr. 50 min.

    Encoding & English Script: Robin
    Portuguese Script: HNK Fansubs

    SYNOPSIS
    Following a cataclysmic nuclear war, the world teeters on the brink of complete destruction. Civilization is polarized into a degenerate society where opposing packs of marauding scavengers prey on helpless, homeless nomads. For those who are lucky enough to survive the constant brutality and danger, it is a bleak existence. Life an death blur into abstractions. The only hope left for mankind is to find a hero worthy of becoming the next "Fist of the North Star" - an enlightened warrior - who is capable of leading those with the will to survive out of this barrenness into a new world. But in this savage no-man's land of shifting loyalties and power-hungry demi-gods, heroes are in short supply.

      Spoiler: Download (Rapidgator) 
    Code:
    https://rg.to/file/095aa3696eb82c29a8c745dcbc436cdb/Hokuto_no_Ken_Movie_(v2)_[1986].part1.rar.html
    https://rg.to/file/bf97ab9ae27277332da8034236ef2f07/Hokuto_no_Ken_Movie_(v2)_[1986].part2.rar.html
    
    SINGLE FILE
    https://rg.to/file/d2a27934d80d61b656d39fd3a59ecb38/Hokuto_no_Ken_Movie_(v2)_[1986]_(Remastered_x264_Dual_AC3-End_-_ENG_POR)_[F15F8C2A].mkv.html

      Spoiler: Download (Katfile) 
    Code:
    http://katfile.com/p0ljjuub1wpl/Hokuto_no_Ken_Movie_(v2)_[1986].part1.rar.html
    http://katfile.com/w7t770good3l/Hokuto_no_Ken_Movie_(v2)_[1986].part2.rar.html

    Screenshots

    File info
    Video: 720x478 (4:3), H.264, 23.976 FPS (1640 kbit/s)
    Audio: 1. Japanese, 2.0 AC-3(384 kbit/s), 2. English, 2.0 AC-3 (384 kbit/s)
    Subtitle: 1. English, Soft Styled (.ASS), 2. English, Soft Styled (.ASS) (Home Video Ending), 3. Portuguese Soft Styled (.ASS)

      Spoiler: Media info 
    Code:
    Format                                   : Matroska
    Format version                           : Version 2
    File size                                : 1.89 GiB
    Duration                                 : 1 h 52 min
    Overall bit rate                         : 2 410 kb/s
    Movie name                               : Japanese Home Video Ending
    Encoded date                             : UTC 2009-07-06 19:54:34
    Writing application                      : mkvmerge v2.9.7 ('Tenderness') built on Jul  1 2009 18:43:35
    Writing library                          : libebml v0.7.7 + libmatroska v0.8.1
    Attachments                              : bertoltbrecht.ttf / GOTHIC.TTF
    
    Video
    ID                                       : 1
    Format                                   : AVC
    Format/Info                              : Advanced Video Codec
    Format profile                           : High@L4
    Format settings, CABAC                   : Yes
    Format settings, RefFrames               : 16 frames
    Codec ID                                 : V_MPEG4/ISO/AVC
    Duration                                 : 1 h 52 min
    Bit rate                                 : 1 640 kb/s
    Width                                    : 720 pixels
    Height                                   : 478 pixels
    Display aspect ratio                     : 4:3
    Original display aspect ratio            : 4:3
    Frame rate mode                          : Constant
    Frame rate                               : 23.976 (24000/1001) FPS
    Color space                              : YUV
    Chroma subsampling                       : 4:2:0
    Bit depth                                : 8 bits
    Scan type                                : Progressive
    Bits/(Pixel*Frame)                       : 0.199
    Stream size                              : 1.25 GiB (66%)
    Title                                    : DVD 720x478 (4:3) x264
    Writing library                          : x264 core 67 r1173 f6d3166
    Encoding settings                        : cabac=1 / ref=16 / deblock=1:0:0 / analyse=0x3:0x133 / me=umh / subme=9 / psy_rd=0.5:0.0 / mixed_ref=1 / me_range=32 / chroma_me=1 / trellis=2 / 8x8dct=1 / cqm=0 / deadzone=21,11 / chroma_qp_offset=-2 / threads=3 / nr=0 / decimate=0 / mbaff=0 / bframes=16 / b_pyramid=1 / b_adapt=2 / b_bias=0 / direct=3 / wpredb=1 / keyint=300 / keyint_min=20 / scenecut=40 / rc=2pass / bitrate=1640 / ratetol=1.0 / qcomp=0.60 / qpmin=10 / qpmax=51 / qpstep=4 / cplxblur=20.0 / qblur=0.5 / ip_ratio=1.40 / pb_ratio=1.25 / aq=0
    Default                                  : Yes
    Forced                                   : No
    
    Audio #1
    ID                                       : 2
    Format                                   : AC-3
    Format/Info                              : Audio Coding 3
    Format settings, Endianness              : Big
    Codec ID                                 : A_AC3
    Duration                                 : 1 h 52 min
    Bit rate mode                            : Constant
    Bit rate                                 : 384 kb/s
    Channel(s)                               : 2 channels
    Channel positions                        : Front: L R
    Sampling rate                            : 48.0 kHz
    Frame rate                               : 31.250 FPS (1536 SPF)
    Bit depth                                : 16 bits
    Compression mode                         : Lossy
    Stream size                              : 309 MiB (16%)
    Title                                    : Dolby Digital 2.0 384kbps
    Language                                 : Japanese
    Service kind                             : Complete Main
    Default                                  : Yes
    Forced                                   : No
    
    Audio #2
    ID                                       : 3
    Format                                   : AC-3
    Format/Info                              : Audio Coding 3
    Format settings, Endianness              : Big
    Codec ID                                 : A_AC3
    Duration                                 : 1 h 52 min
    Bit rate mode                            : Constant
    Bit rate                                 : 384 kb/s
    Channel(s)                               : 2 channels
    Channel positions                        : Front: L R
    Sampling rate                            : 48.0 kHz
    Frame rate                               : 31.250 FPS (1536 SPF)
    Bit depth                                : 16 bits
    Compression mode                         : Lossy
    Stream size                              : 309 MiB (16%)
    Title                                    : Dolby Digital 2.0 384kbps
    Language                                 : English
    Service kind                             : Complete Main
    Default                                  : No
    Forced                                   : No
    
    Text #1
    ID                                       : 4
    Format                                   : ASS
    Codec ID                                 : S_TEXT/ASS
    Codec ID/Info                            : Advanced Sub Station Alpha
    Compression mode                         : Lossless
    Title                                    : Full Movie
    Language                                 : English
    Default                                  : Yes
    Forced                                   : No
    
    Text #2
    ID                                       : 5
    Format                                   : ASS
    Codec ID                                 : S_TEXT/ASS
    Codec ID/Info                            : Advanced Sub Station Alpha
    Compression mode                         : Lossless
    Title                                    : Home Video Ending Only
    Language                                 : English
    Default                                  : No
    Forced                                   : No
    
    Text #3
    ID                                       : 6
    Format                                   : ASS
    Codec ID                                 : S_TEXT/ASS
    Codec ID/Info                            : Advanced Sub Station Alpha
    Compression mode                         : Lossless
    Title                                    : Full Movie
    Language                                 : Portuguese
    Default                                  : No
    Forced                                   : No
    Last edited by DerDor; October 2nd, 2017 at 11:23 AM. Reason: links updated

  2. # ADS
    Circuit advertisement
    Join Date
    Always
    Posts
    Many
     

Thread Information

Users Browsing this Thread

There are currently 1 users browsing this thread. (0 members and 1 guests)

Similar Threads

  1. [360p] [HoM] New Fist of the North Star [Dual Audio]
    By corocoro in forum Movies & OVAs
    Replies: 11
    Last Post: April 20th, 2016, 04:58 AM
  2. [480p] [HoM] Fist of the North Star 2
    By corocoro in forum Completed Series
    Replies: 10
    Last Post: January 24th, 2016, 03:19 PM
  3. [480p] [HoM] [ass] Fist of the North Star
    By corocoro in forum Completed Series
    Replies: 13
    Last Post: September 7th, 2014, 10:42 PM
  4. Fist of the North Star 2 and New Fist of the North Star
    By hoho711 in forum Filled Requests
    Replies: 1
    Last Post: January 20th, 2013, 10:51 PM
  5. Fist of the North Star
    By Beovle in forum Filled Requests
    Replies: 3
    Last Post: November 3rd, 2011, 06:21 PM

Tags for this Thread

Bookmarks

Posting Permissions

  • You may not post new threads
  • You may not post replies
  • You may not post attachments
  • You may not edit your posts
  •