Results 1 to 1 of 1
  1. #1
    Senior Member .:Sexmeup:.'s Avatar
    Join Date
    Oct 2016
    Posts
    1,492
    Thanks
    1
    Thanked 6 Times in 6 Posts
    Points: 12,700, Level: 73
    Points: 12,700, Level: 73
    Overall activity: 3.0%
    Overall activity: 3.0%
    Achievements:
    1 year registeredOverdriveThree Friends10000 Experience Points

    [SADPANDA] Evangerion shin gekijôban: Jo







    The fate of the world is threatened by seemingly monstrous entities known as Angels. NERV is an organisation set up to counter this threat and it is up to young pilots to protect Earth but exactly what are the real motives behind NERV?

    Aired: 1 September 2007 (Japan)
    Categories: Animation, Action, Drama

    Group: SADPANDA



    Media Info:

    Code:
    General
    Unique ID                                : 180274621845776684985503581291227688849 (0x879FA1160ACAFB9CAB513CFD1E6CAF91)
    Complete name                            : C:\Users\Administrator\Downloads\Evangelion.1.11.You.Are.Not.Alone.2007.1080p.REAL.BluRay.x264-SADPANDA.mkv
    Format                                   : Matroska
    Format version                           : Version 4
    File size                                : 6.56 GiB
    Duration                                 : 1 h 40 min
    Overall bit rate                         : 9 297 kb/s
    Encoded date                             : UTC 2014-09-27 15:49:53
    Writing application                      : mkvmerge v7.1.0 ('Good Love') 64bit built on Jul 27 2014 13:06:55
    Writing library                          : libebml v1.3.0 + libmatroska v1.4.1
    
    Video
    ID                                       : 1
    Format                                   : AVC
    Format/Info                              : Advanced Video Codec
    Format profile                           : High@L4.1
    Format settings                          : CABAC / 4 Ref Frames
    Format settings, CABAC                   : Yes
    Format settings, RefFrames               : 4 frames
    Codec ID                                 : V_MPEG4/ISO/AVC
    Duration                                 : 1 h 40 min
    Bit rate                                 : 8 017 kb/s
    Width                                    : 1 920 pixels
    Height                                   : 1 080 pixels
    Display aspect ratio                     : 16:9
    Frame rate mode                          : Constant
    Frame rate                               : 23.976 (24000/1001) FPS
    Color space                              : YUV
    Chroma subsampling                       : 4:2:0
    Bit depth                                : 8 bits
    Scan type                                : Progressive
    Bits/(Pixel*Frame)                       : 0.161
    Stream size                              : 5.65 GiB (86%)
    Writing library                          : x264 core 142 r2479 dd79a61
    Encoding settings                        : cabac=1 / ref=4 / deblock=1:0:0 / analyse=0x3:0x133 / me=umh / subme=8 / psy=1 / psy_rd=1.00:0.00 / mixed_ref=1 / me_range=16 / chroma_me=1 / trellis=1 / 8x8dct=1 / cqm=0 / deadzone=21,11 / fast_pskip=0 / chroma_qp_offset=-2 / threads=12 / lookahead_threads=2 / sliced_threads=0 / nr=0 / decimate=1 / interlaced=0 / bluray_compat=0 / constrained_intra=0 / bframes=3 / b_pyramid=2 / b_adapt=1 / b_bias=0 / direct=1 / weightb=1 / open_gop=0 / weightp=2 / keyint=250 / keyint_min=23 / scenecut=40 / intra_refresh=0 / rc_lookahead=40 / rc=2pass / mbtree=1 / bitrate=8017 / ratetol=1.0 / qcomp=0.60 / qpmin=0 / qpmax=69 / qpstep=4 / cplxblur=20.0 / qblur=0.5 / ip_ratio=1.40 / aq=1:1.00
    Default                                  : Yes
    Forced                                   : No
    
    Audio #1
    ID                                       : 2
    Format                                   : AC-3
    Format/Info                              : Audio Coding 3
    Commercial name                          : Dolby Digital
    Codec ID                                 : A_AC3
    Duration                                 : 1 h 40 min
    Bit rate mode                            : Constant
    Bit rate                                 : 640 kb/s
    Channel(s)                               : 6 channels
    Channel layout                           : L R C LFE Ls Rs
    Sampling rate                            : 48.0 kHz
    Frame rate                               : 31.250 FPS (1536 SPF)
    Bit depth                                : 16 bits
    Compression mode                         : Lossy
    Stream size                              : 462 MiB (7%)
    Language                                 : English
    Service kind                             : Complete Main
    Default                                  : Yes
    Forced                                   : No
    
    Audio #2
    ID                                       : 3
    Format                                   : AC-3
    Format/Info                              : Audio Coding 3
    Commercial name                          : Dolby Digital
    Codec ID                                 : A_AC3
    Duration                                 : 1 h 40 min
    Bit rate mode                            : Constant
    Bit rate                                 : 640 kb/s
    Channel(s)                               : 6 channels
    Channel layout                           : L R C LFE Ls Rs
    Sampling rate                            : 48.0 kHz
    Frame rate                               : 31.250 FPS (1536 SPF)
    Bit depth                                : 16 bits
    Compression mode                         : Lossy
    Stream size                              : 462 MiB (7%)
    Language                                 : Japanese
    Service kind                             : Complete Main
    Default                                  : No
    Forced                                   : No
    
    Text #1
    ID                                       : 4
    Format                                   : UTF-8
    Codec ID                                 : S_TEXT/UTF8
    Codec ID/Info                            : UTF-8 Plain Text
    Duration                                 : 1 h 38 min
    Bit rate                                 : 2 b/s
    Count of elements                        : 54
    Stream size                              : 1.83 KiB (0%)
    Title                                    : English Forced
    Language                                 : English
    Default                                  : Yes
    Forced                                   : No
    
    Text #2
    ID                                       : 5
    Format                                   : UTF-8
    Codec ID                                 : S_TEXT/UTF8
    Codec ID/Info                            : UTF-8 Plain Text
    Duration                                 : 1 h 39 min
    Bit rate                                 : 66 b/s
    Count of elements                        : 1362
    Stream size                              : 48.3 KiB (0%)
    Title                                    : English
    Language                                 : English
    Default                                  : No
    Forced                                   : No
    Katfile:

    Code:
    http://katfile.com/bgum7jmqcoru/Evangelion.1.11.You.Are.Not.Alone.2007.1080p.REAL.BluRay.x264-SADPANDA.part1.rar.html
    http://katfile.com/atnp2crsyr57/Evangelion.1.11.You.Are.Not.Alone.2007.1080p.REAL.BluRay.x264-SADPANDA.part2.rar.html
    http://katfile.com/c0182czkl1w1/Evangelion.1.11.You.Are.Not.Alone.2007.1080p.REAL.BluRay.x264-SADPANDA.part3.rar.html
    http://katfile.com/os5e4r7oyfdu/Evangelion.1.11.You.Are.Not.Alone.2007.1080p.REAL.BluRay.x264-SADPANDA.part4.rar.html
    http://katfile.com/5o909apbb4a2/Evangelion.1.11.You.Are.Not.Alone.2007.1080p.REAL.BluRay.x264-SADPANDA.part5.rar.html
    http://katfile.com/c43g75a9i7go/Evangelion.1.11.You.Are.Not.Alone.2007.1080p.REAL.BluRay.x264-SADPANDA.part6.rar.html
    http://katfile.com/5icqo8r68glq/Evangelion.1.11.You.Are.Not.Alone.2007.1080p.REAL.BluRay.x264-SADPANDA.part7.rar.html
    Rapidgator:

    Code:
    https://rapidgator.net/file/8a15b5cf466f2764c96b6f73950fc485/Evangelion.1.11.You.Are.Not.Alone.2007.1080p.REAL.BluRay.x264-SADPANDA.part1.rar.html
    https://rapidgator.net/file/8e21b48ccac9426051e670f07d0d69f2/Evangelion.1.11.You.Are.Not.Alone.2007.1080p.REAL.BluRay.x264-SADPANDA.part2.rar.html
    https://rapidgator.net/file/b71ac867c3303ad73574ec213e1513b9/Evangelion.1.11.You.Are.Not.Alone.2007.1080p.REAL.BluRay.x264-SADPANDA.part3.rar.html
    https://rapidgator.net/file/605bb58b4da45876eb515b026946da44/Evangelion.1.11.You.Are.Not.Alone.2007.1080p.REAL.BluRay.x264-SADPANDA.part4.rar.html
    https://rapidgator.net/file/0651082732eb32183bc4e2d0d5365886/Evangelion.1.11.You.Are.Not.Alone.2007.1080p.REAL.BluRay.x264-SADPANDA.part5.rar.html
    https://rapidgator.net/file/388ec07b0311a7124bd3b2fe5fcc829b/Evangelion.1.11.You.Are.Not.Alone.2007.1080p.REAL.BluRay.x264-SADPANDA.part6.rar.html
    https://rapidgator.net/file/ea87593166b2951cd38314ad51698c72/Evangelion.1.11.You.Are.Not.Alone.2007.1080p.REAL.BluRay.x264-SADPANDA.part7.rar.html
    Password: Sexmeup


  2. # ADS
    Circuit advertisement
    Join Date
    Always
    Posts
    Many
     

Thread Information

Users Browsing this Thread

There are currently 1 users browsing this thread. (0 members and 1 guests)

Similar Threads

  1. [PSP] [110929] Evangelion Shin Gekijoban: 3nd Impact [JPN]
    By t3nk3n in forum PSP/PS/PS2/PS3
    Replies: 0
    Last Post: September 29th, 2011, 11:55 PM
  2. Replies: 0
    Last Post: December 8th, 2010, 02:51 AM
  3. Replies: 0
    Last Post: December 3rd, 2010, 03:37 PM
  4. Replies: 0
    Last Post: December 3rd, 2010, 03:31 PM
  5. Replies: 0
    Last Post: December 2nd, 2010, 04:23 PM

Bookmarks

Posting Permissions

  • You may not post new threads
  • You may not post replies
  • You may not post attachments
  • You may not edit your posts
  •