Results 1 to 1 of 1
Like Tree1Likes
  • 1 Post By DerDor

Thread: [WHW-AnaF] Pale Cocoon [Blu-Ray]

  1. #1
    Senior Member DerDor's Avatar
    Join Date
    Jul 2017
    Posts
    1,957
    Thanks
    0
    Thanked 735 Times in 527 Posts
    Points: 57,597, Level: 100
    Points: 57,597, Level: 100
    Overall activity: 0%
    Overall activity: 0%
    Achievements:
    Tagger First Class50000 Experience PointsVeteran

    [WHW-AnaF] Pale Cocoon [Blu-Ray]


    INFO
    Main Title: Pale Cocoon
    Official Title: ペイル・コクーン
    Episodes: 1
    Released: Dec 10, 2005
    Studios: Studio Rikka
    Source: Original
    Genres: Cyberpunk, Sci-Fi, Post-Apocalypse, Drama
    Duration: 23 min.

    Group: WHW-AnaF
    English translation: BSEnc
    Spanish translation: AnaF

    SYNOPSIS
    A future where the continuity of history has broken off, a world of enormous ruins that continues endlessly.
    Oceans and continents have vanished, existing only within the archives brought up from the remains.
    Ura works in the Archive Excavation Department, which restores and analyzes the data left behind. One day, he finds a disturbing visual record...

      Spoiler: Download (Rapidgator) 
    Code:
    http://rg.to/file/623633951f493461a28c31339f4571b6/[WHW-AnaF]_Pale_Cocoon_v2_[BD_720p][7C80AE7A].mkv.html

      Spoiler: Download (Katfile) 
    Code:
    http://katfile.com/ijcxughgt9ey/[WHW-AnaF]_Pale_Cocoon_v2_[BD_720p][7C80AE7A].mkv.html

    Screenshots
    File info
    Video: 1280x720 16:9 23.976 fps H264/AVC 10bit(4681 kbit/s)
    Audio: Japanese 2.0 Stereo AAC (205 kbit/s)
    Subtitles: English softsub ASS, Spanish softsub ASS
      Spoiler: Media info 
    Code:
    Format                                   : Matroska
    Format version                           : Version 4 / Version 2
    File size                                : 801 MiB
    Duration                                 : 22 min 54 s
    Overall bit rate                         : 4 890 kb/s
    Encoded date                             : UTC 2015-01-30 22:42:50
    Writing application                      : mkvmerge v7.5.0 ('Glass Culture') 64bit built on Jan  4 2015 16:48:44
    Writing library                          : libebml v1.3.1 + libmatroska v1.4.2
    Attachments                              : Complete in Him_0.ttf / HoboStd.otf / persans.ttf / square-721-blk-normal-2.ttf
    
    Video
    ID                                       : 1
    Format                                   : AVC
    Format/Info                              : Advanced Video Codec
    Format profile                           : High [email protected]
    Format settings, CABAC                   : Yes
    Format settings, RefFrames               : 16 frames
    Codec ID                                 : V_MPEG4/ISO/AVC
    Duration                                 : 22 min 54 s
    Bit rate                                 : 4 681 kb/s
    Width                                    : 1 280 pixels
    Height                                   : 720 pixels
    Display aspect ratio                     : 16:9
    Frame rate mode                          : Constant
    Frame rate                               : 23.976 (24000/1001) FPS
    Color space                              : YUV
    Chroma subsampling                       : 4:2:0
    Bit depth                                : 10 bits
    Scan type                                : Progressive
    Bits/(Pixel*Frame)                       : 0.212
    Stream size                              : 767 MiB (96%)
    Title                                    : h264
    Writing library                          : x264 core 142 r2491kMod 24e4fed
    Encoding settings                        : cabac=1 / ref=16 / deblock=1:0:0 / analyse=0x3:0x133 / me=umh / subme=10 / psy=1 / fade_compensate=0.80 / psy_rd=0.70:0.00 / mixed_ref=1 / me_range=32 / chroma_me=1 / trellis=2 / 8x8dct=1 / cqm=0 / deadzone=21,11 / fast_pskip=0 / chroma_qp_offset=-2 / threads=12 / lookahead_threads=3 / sliced_threads=0 / nr=0 / decimate=0 / interlaced=0 / bluray_compat=0 / constrained_intra=0 / fgo=0 / bframes=16 / b_pyramid=2 / b_adapt=2 / b_bias=0 / direct=3 / weightb=1 / open_gop=0 / weightp=2 / keyint=250 / keyint_min=23 / scenecut=40 / intra_refresh=0 / rc_lookahead=60 / rc=crf / mbtree=1 / crf=16.0000 / qcomp=0.70 / qpmin=0 / qpmax=81 / qpstep=4 / ip_ratio=1.40 / aq=3:0.90
    Default                                  : Yes
    Forced                                   : No
    Color range                              : Limited
    Matrix coefficients                      : BT.709
    
    Audio
    ID                                       : 2
    Format                                   : AAC
    Format/Info                              : Advanced Audio Codec
    Format profile                           : LC
    Codec ID                                 : A_AAC
    Duration                                 : 22 min 54 s
    Bit rate                                 : 205 kb/s
    Channel(s)                               : 2 channels
    Channel positions                        : Front: L R
    Sampling rate                            : 48.0 kHz
    Frame rate                               : 46.875 FPS (1024 SPF)
    Compression mode                         : Lossy
    Delay relative to video                  : 9 ms
    Stream size                              : 33.7 MiB (4%)
    Title                                    : AAC
    Language                                 : Japanese
    Default                                  : Yes
    Forced                                   : No
    
    Text #1
    ID                                       : 3
    Format                                   : ASS
    Codec ID                                 : S_TEXT/ASS
    Codec ID/Info                            : Advanced Sub Station Alpha
    Duration                                 : 22 min 10 s
    Bit rate                                 : 188 b/s
    Count of elements                        : 348
    Compression mode                         : Lossless
    Stream size                              : 30.7 KiB (0%)
    Title                                    : ASS
    Language                                 : Spanish
    Default                                  : Yes
    Forced                                   : No
    
    Text #2
    ID                                       : 4
    Format                                   : ASS
    Codec ID                                 : S_TEXT/ASS
    Codec ID/Info                            : Advanced Sub Station Alpha
    Duration                                 : 22 min 10 s
    Bit rate                                 : 183 b/s
    Count of elements                        : 349
    Compression mode                         : Lossless
    Stream size                              : 29.8 KiB (0%)
    Title                                    : ASS
    Language                                 : English
    Default                                  : No
    Forced                                   : No
    Nafanya likes this.

  2. The Following User Says Thank You to DerDor For This Useful Post:


  3. # ADS
    Circuit advertisement
    Join Date
    Always
    Posts
    Many
     

Thread Information

Users Browsing this Thread

There are currently 1 users browsing this thread. (0 members and 1 guests)

Similar Threads

  1. [REQ] Pale Cocoon 480p/720p
    By ipod_frk in forum Anime Requests
    Replies: 0
    Last Post: May 25th, 2013, 11:13 AM
  2. [Album] Yosuga No Sora Blu-ray Nao Yorihime Soundtrack
    By AntiClimax in forum Anime OSTs
    Replies: 2
    Last Post: February 10th, 2012, 04:20 AM
  3. Replies: 2
    Last Post: August 13th, 2011, 08:58 AM
  4. Ikkitousen Xtreme Xecuter Blu-Ray 480p
    By chris red in forum Filled Requests
    Replies: 3
    Last Post: July 28th, 2011, 01:19 PM
  5. [Album] Yosuga no Sora Blu-ray Kazha Migiwa Soundtrack
    By AntiClimax in forum Anime OSTs
    Replies: 0
    Last Post: April 7th, 2011, 08:09 PM

Tags for this Thread

Bookmarks

Posting Permissions

  • You may not post new threads
  • You may not post replies
  • You may not post attachments
  • You may not edit your posts
  •