Results 1 to 1 of 1
  1. #1
    Senior Member DerDor's Avatar
    Join Date
    Jul 2017
    Posts
    1,957
    Thanks
    0
    Thanked 735 Times in 527 Posts
    Points: 57,597, Level: 100
    Points: 57,597, Level: 100
    Overall activity: 0%
    Overall activity: 0%
    Achievements:
    Tagger First Class50000 Experience PointsVeteran

    [kuchikirukia] Sayonara Zetsubou Sensei [Blu-Ray]


    INFO
    Main Title: Sayonara Zetsubou Sensei, Goodbye Teacher Despair
    Official Title: さよなら絶望先生
    Episodes: 12
    Aired: Jul 8, 2007 to Sep 23, 2007
    Studios: Shaft
    Source: Manga
    Genres: Comedy, High School, Manga, Parody, School Life, Shounen
    Duration: 24 min. per ep.

    Group: kuchikirukia
    Translation: FuktLogik

    SYNOPSIS
    Nozomu Itoshiki is a high school teacher so pessimistic that even the smallest of misfortunes can send him into a pit of raging despair; some of these "catastrophes" even lead to suicide attempts.
    Sayonara Zetsubou Sensei is a satirical slice-of-life comedy set in the modern day, covering various aspects of Japanese life and culture through Nozomu and his interactions with his students:
    Kiri Komori, a recluse who refuses to leave the school; Abiru Kobushi, an enigma who frequently arrives to class with severe and mysterious injuries; the hyper-optimistic Kafuuka Fuura, Nozomu's polar opposite; and several other unusual girls, all of whom are just as eccentric as their teacher.
      Spoiler: Download (Rapidgator) 
    Code:
    https://rapidgator.net/file/69871fc5f9e4a4f7bfb2b085d4072718/01._Sayonara_Zetsubou_Sensei_[720p_Hi10p_AAC_BDRip][kuchikirukia]_[E24E9EB2].mkv.html
    https://rapidgator.net/file/97bb0f145bfc1cc25009e484d58959c8/02._Sayonara_Zetsubou_Sensei_[720p_Hi10p_AAC_BDRip][kuchikirukia]_[4BF38387].mkv.html
    https://rapidgator.net/file/e6f5b42da0672d13d3ced35fd73fc0db/03._Sayonara_Zetsubou_Sensei_[720p_Hi10p_AAC_BDRip][kuchikirukia]_[1345D78E].mkv.html
    https://rapidgator.net/file/e91b39e30bd40e62932c8c729d80ec24/04._Sayonara_Zetsubou_Sensei_[720p_Hi10p_AAC_BDRip][kuchikirukia]_[E189606E].mkv.html
    https://rapidgator.net/file/3c1ffbd979b3e20b8fce84e9630b2607/05._Sayonara_Zetsubou_Sensei_[720p_Hi10p_AAC_BDRip][kuchikirukia]_[236BB482].mkv.html
    https://rapidgator.net/file/282e3601c26b73578013b8fe8cdf8e2b/06._Sayonara_Zetsubou_Sensei_[720p_Hi10p_AAC_BDRip][kuchikirukia]_[9C258F9E].mkv.html
    https://rapidgator.net/file/66bcd24033f29797ce525b9098e15b60/07._Sayonara_Zetsubou_Sensei_[720p_Hi10p_AAC_BDRip][kuchikirukia]_[0187A81E].mkv.html
    https://rapidgator.net/file/a55010b49b6f4d866410b067f1e2732c/08._Sayonara_Zetsubou_Sensei_[720p_Hi10p_AAC_BDRip][kuchikirukia]_[5F98DED5].mkv.html
    https://rapidgator.net/file/65897cb2a04a51d4181ddddb0d6fc646/09._Sayonara_Zetsubou_Sensei_[720p_Hi10p_AAC_BDRip][kuchikirukia]_[DF63FF29].mkv.html
    https://rapidgator.net/file/80496f7d565d520693d54a88e0e3549f/10._Sayonara_Zetsubou_Sensei_[720p_Hi10p_AAC_BDRip][kuchikirukia]_[2222DD11].mkv.html
    https://rapidgator.net/file/e871f2d0bcc4c102a83246f4931fb310/11._Sayonara_Zetsubou_Sensei_[720p_Hi10p_AAC_BDRip][kuchikirukia][95080862].mkv.html
    https://rapidgator.net/file/83760e97abc65788b05fa5ed72e112a7/12._Sayonara_Zetsubou_Sensei_[720p_Hi10p_AAC_BDRip][kuchikirukia][799FDE7C].mkv.html
    https://rapidgator.net/file/a679d506d9eb76ac4098360cf1a7c890/99._NCED_(for_linked_mkvs_and_ordered_chapters)_[06C51833].mkv.html

      Spoiler: Download (Katfile) 
    Code:
    http://katfile.com/7kz5ml6gt2x0/01._Sayonara_Zetsubou_Sensei_[720p_Hi10p_AAC_BDRip][kuchikirukia]_[E24E9EB2].mkv.html
    http://katfile.com/hrcix35v530i/02._Sayonara_Zetsubou_Sensei_[720p_Hi10p_AAC_BDRip][kuchikirukia]_[4BF38387].mkv.html
    http://katfile.com/dglrohcvydpd/03._Sayonara_Zetsubou_Sensei_[720p_Hi10p_AAC_BDRip][kuchikirukia]_[1345D78E].mkv.html
    http://katfile.com/1bddxblw17wp/04._Sayonara_Zetsubou_Sensei_[720p_Hi10p_AAC_BDRip][kuchikirukia]_[E189606E].mkv.html
    http://katfile.com/4k4nqxkksg98/05._Sayonara_Zetsubou_Sensei_[720p_Hi10p_AAC_BDRip][kuchikirukia]_[236BB482].mkv.html
    http://katfile.com/7ij6le1u3ua7/06._Sayonara_Zetsubou_Sensei_[720p_Hi10p_AAC_BDRip][kuchikirukia]_[9C258F9E].mkv.html
    http://katfile.com/goef0b93pth2/07._Sayonara_Zetsubou_Sensei_[720p_Hi10p_AAC_BDRip][kuchikirukia]_[0187A81E].mkv.html
    http://katfile.com/2s3livv6dydg/08._Sayonara_Zetsubou_Sensei_[720p_Hi10p_AAC_BDRip][kuchikirukia]_[5F98DED5].mkv.html
    http://katfile.com/yfa7xcakkw8v/09._Sayonara_Zetsubou_Sensei_[720p_Hi10p_AAC_BDRip][kuchikirukia]_[DF63FF29].mkv.html
    http://katfile.com/sn7bdmx4er1x/10._Sayonara_Zetsubou_Sensei_[720p_Hi10p_AAC_BDRip][kuchikirukia]_[2222DD11].mkv.html
    http://katfile.com/e0uwt9qazelr/11._Sayonara_Zetsubou_Sensei_[720p_Hi10p_AAC_BDRip][kuchikirukia][95080862].mkv.html
    http://katfile.com/joerwxeztaq0/12._Sayonara_Zetsubou_Sensei_[720p_Hi10p_AAC_BDRip][kuchikirukia][799FDE7C].mkv.html
    http://katfile.com/ixw0e72lza6x/99._NCED_(for_linked_mkvs_and_ordered_chapters)_[06C51833].mkv.html

    Screenshots
    File info
    Video: H264 10-bit, 1280x720 (16:9), VFR (~1700 kBit/s
    Audio: Japanese, 2.0 AAC (~260 kBit/s
    Subtitle: English soft styled subs (ASS)

      Spoiler: Media info 
    Code:
    Format                                   : Matroska
    Format version                           : Version 4 / Version 2
    File size                                : 309 MiB
    Duration                                 : 22 min 3 s
    Overall bit rate                         : 1 960 kb/s
    Movie name                               : Sayonara Zetsubou Sensei - 01
    Encoded date                             : UTC 2016-09-18 15:50:50
    Writing application                      : mkvmerge v9.4.2 ('So High') 64bit
    Writing library                          : libebml v1.3.4 + libmatroska v1.4.5
    Attachments                              : Addict-Regular.ttf / Amienne.ttf / arial.ttf / Artois.ttf / erasdust.ttf / malgun.ttf / segoepr.ttf / SoundBook.ttf / verdana.ttf
    
    Video
    ID                                       : 1
    Format                                   : AVC
    Format/Info                              : Advanced Video Codec
    Format profile                           : High [email protected]
    Format settings, CABAC                   : Yes
    Format settings, RefFrames               : 10 frames
    Codec ID                                 : V_MPEG4/ISO/AVC
    Duration                                 : 22 min 2 s
    Bit rate                                 : 1 635 kb/s
    Width                                    : 1 276 pixels
    Height                                   : 720 pixels
    Display aspect ratio                     : 16:9
    Frame rate mode                          : Variable
    Frame rate                               : 26.446 FPS
    Original frame rate                      : 26.566 FPS
    Color space                              : YUV
    Chroma subsampling                       : 4:2:0
    Bit depth                                : 10 bits
    Scan type                                : Progressive
    Bits/(Pixel*Frame)                       : 0.067
    Stream size                              : 258 MiB (83%)
    Writing library                          : x264 core 148 r2705 3f5ed56
    Encoding settings                        : cabac=1 / ref=10 / deblock=1:0:0 / analyse=0x3:0x133 / me=umh / subme=10 / psy=1 / psy_rd=1.00:0.00 / mixed_ref=1 / me_range=40 / chroma_me=1 / trellis=2 / 8x8dct=1 / cqm=0 / deadzone=21,11 / fast_pskip=1 / chroma_qp_offset=-2 / threads=8 / lookahead_threads=1 / sliced_threads=0 / nr=0 / decimate=1 / interlaced=0 / bluray_compat=0 / constrained_intra=0 / bframes=9 / b_pyramid=2 / b_adapt=2 / b_bias=0 / direct=3 / weightb=1 / open_gop=1 / weightp=2 / keyint=531 / keyint_min=26 / scenecut=40 / intra_refresh=0 / rc_lookahead=60 / rc=crf / mbtree=1 / crf=17.0 / qcomp=0.75 / qpmin=0 / qpmax=81 / qpstep=4 / ip_ratio=1.40 / aq=2:1.00
    Default                                  : Yes
    Forced                                   : No
    
    Audio
    ID                                       : 2
    Format                                   : AAC
    Format/Info                              : Advanced Audio Codec
    Format profile                           : LC
    Codec ID                                 : A_AAC
    Duration                                 : 22 min 2 s
    Bit rate                                 : 288 kb/s
    Channel(s)                               : 2 channels
    Channel positions                        : Front: L R
    Sampling rate                            : 48.0 kHz
    Frame rate                               : 46.875 FPS (1024 SPF)
    Compression mode                         : Lossy
    Delay relative to video                  : 20 ms
    Stream size                              : 45.1 MiB (15%)
    Default                                  : Yes
    Forced                                   : No
    
    Text
    ID                                       : 3
    Format                                   : ASS
    Codec ID                                 : S_TEXT/ASS
    Codec ID/Info                            : Advanced Sub Station Alpha
    Duration                                 : 22 min 2 s
    Bit rate                                 : 251 b/s
    Count of elements                        : 660
    Compression mode                         : Lossless
    Stream size                              : 40.5 KiB (0%)
    Title                                    : Sayonara Zetsubou Sensei - 01
    Language                                 : English
    Default                                  : Yes
    Forced                                   : No
    Last edited by DerDor; March 19th, 2018 at 01:07 PM. Reason: links updated

  2. # ADS
    Circuit advertisement
    Join Date
    Always
    Posts
    Many
     

Thread Information

Users Browsing this Thread

There are currently 1 users browsing this thread. (0 members and 1 guests)

Similar Threads

  1. [480p] [gg] Goku Sayonara Zetsubou Sensei
    By corocoro in forum Movies & OVAs
    Replies: 12
    Last Post: June 11th, 2016, 09:13 AM
  2. [Various] [Various] Zoku Sayonara Zetsubou Sensei
    By corocoro in forum Completed Series
    Replies: 13
    Last Post: March 30th, 2016, 12:38 PM
  3. [480p] [gg] Zan Sayonara Zetsubou Sensei
    By corocoro in forum Completed Series
    Replies: 10
    Last Post: March 30th, 2016, 11:35 AM
  4. [576p] [nonA] Sayonara Zetsubou Sensei [Bluray]
    By corocoro in forum Completed Series
    Replies: 16
    Last Post: March 30th, 2016, 10:57 AM
  5. [REQ] Sayonara Zetsubou Sensei series
    By JFreak in forum Filled Requests
    Replies: 2
    Last Post: January 5th, 2012, 01:56 PM

Tags for this Thread

Bookmarks

Posting Permissions

  • You may not post new threads
  • You may not post replies
  • You may not post attachments
  • You may not edit your posts
  •