Results 1 to 4 of 4
  1. #1
    ┐(´∀`)┌ヤレヤ レ Quas's Avatar
    Join Date
    Sep 2011
    Location
    京都市、京都、日本
    Posts
    699
    Thanks
    2
    Thanked 447 Times in 276 Posts
    Points: 49,478, Level: 100
    Points: 49,478, Level: 100
    Overall activity: 0%
    Overall activity: 0%
    Achievements:
    Three FriendsTagger First Class25000 Experience PointsVeteranRecommendation Second Class

    [120307] ] TVアニメ「アマガミSS+ plus」Character Songs w/OST「always vol.02」/ (Amagami SS+ Character Songs with OST "always vol.02") [WAV+MP3] [2CDS]



    [IMG]http://i.**********/ib3mW.jpg[/IMG]

    Release info: Lossless/pending + Lossy/mp3 + Scans/png

    >>| 登録情報 |<<
    CD (2012/3/7)
    ディスク枚数: 2
    レーベル: ポニーキャニオン
    収録時間: 30 分
    ASIN: B006B47U84

    >>| 収録曲 |<<

    ディスク:1
    1. Distance
    2. 真冬のセレナーデ
    3. Sweet Graduation
    4. Wonder Land
    ディスク:2
    1. Theme of Grasshopper Man / イナゴマスクのテーマ
    2. Pastel Footbridge / パステル歩道橋
    3. Loved by King Squid / イカ大王に愛されて
    4. How can I forgive noodle bread? / 焼きそばパンが許せない
    5. Dried grass in Tsugaru strait / 津軽海峡枯すすき
    6. The Best horror sound for you / 君のための怖い音楽
    7. For you to shine tomorrow ~告白~ / あしたの君に

    >>| 专辑の説明 |<<
    ★昨年7月より大好評されたTVアニメ「アマガミSS」の第2期「アマガミSS+ plus」が、2012年1月より放送決定!
    ★メインヒロイン4人、棚町薫(CV:佐藤利奈)、中多紗江(CV:今野宏美)、森島はるか(CV:伊藤静)、橘美也(CV:阿澄佳奈)によるキャラクターソング収録予定!
    更に、オリジナルサウンドトラックの楽曲も収録予定!
      Spoiler: Log 

    Exact Audio Copy V1.0 beta 3 from 29. August 2011

    EAC extraction logfile from 6. March 2012, 14:51

    V.A. / always vol.02 Disc1

    Used drive : SlimtypeDVD A DS8A5SH Adapter: 0 ID: 1



    Read mode : Secure
    Utilize accurate stream : Yes
    Defeat audio cache : Yes
    Make use of C2 pointers : No

    Read offset correction : 6
    Overread into Lead-In and Lead-Out : No
    Fill up missing offset samples with silence : Yes
    Delete leading and trailing silent blocks : No
    Null samples used in CRC calculations : Yes
    Used interface : Native Win32 interface for Win NT & 2000

    Used output format : Internal WAV Routines
    Sample format : 44.100 Hz; 16 Bit; Stereo


    TOC of the extracted CD

    Track | Start | Length | Start sector | End sector
    ---------------------------------------------------------
    1 | 0:00.00 | 4:41.05 | 0 | 21079
    2 | 4:41.05 | 3:44.49 | 21080 | 37928
    3 | 8:25.54 | 3:41.39 | 37929 | 54542
    4 | 12:07.18 | 4:13.57 | 54543 | 73574


    Range status and errors

    Selected range

    Filename D:\Act_yego\encoded\always vol.02\always vol.02 Disc1.wav

    Peak level 99.2 %
    Extraction speed 3.3 X
    Range quality 100.0 %
    Copy CRC 63398DCA
    Copy OK

    No errors occurred


    AccurateRip summary

    Track 1 not present in database
    Track 2 not present in database
    Track 3 not present in database
    Track 4 not present in database

    None of the tracks are present in the AccurateRip database

    End of status report

    ---- CUETools DB Plugin V2.1.3

    [CTDB TOCID: CYSvBn6uW2.qonUKS8QIYdK2t_U-] disk not present in database, Submit result: CYSvBn6uW2.qonUKS8QIYdK2t_U- has been uploaded


    ==== Log checksum 5686B03EDCE6BC7E52E393D4659EB74EAA7ADC0100E60F5E5F782D49E39D4787 ====


    折叠此处内容

    Exact Audio Copy V1.0 beta 3 from 29. August 2011

    EAC extraction logfile from 6. March 2012, 14:58

    大森俊之 / always vol.02 Disc2

    Used drive : SlimtypeDVD A DS8A5SH Adapter: 0 ID: 1


    Read mode : Secure
    Utilize accurate stream : Yes
    Defeat audio cache : Yes
    Make use of C2 pointers : No

    Read offset correction : 6
    Overread into Lead-In and Lead-Out : No
    Fill up missing offset samples with silence : Yes
    Delete leading and trailing silent blocks : No
    Null samples used in CRC calculations : Yes
    Used interface : Native Win32 interface for Win NT & 2000

    Used output format : Internal WAV Routines
    Sample format : 44.100 Hz; 16 Bit; Stereo


    TOC of the extracted CD

    Track | Start | Length | Start sector | End sector
    ---------------------------------------------------------
    1 | 0:00.00 | 1:52.25 | 0 | 8424
    2 | 1:52.25 | 2:04.68 | 8425 | 17792
    3 | 3:57.18 | 2:10.69 | 17793 | 27611
    4 | 6:08.12 | 1:47.08 | 27612 | 35644
    5 | 7:55.20 | 2:07.60 | 35645 | 45229
    6 | 10:03.05 | 1:58.36 | 45230 | 54115
    7 | 12:01.41 | 1:52.47 | 54116 | 62562


    Range status and errors

    Selected range

    Filename D:\Act_yego\encoded\always vol.02\always vol.02 Disc2.wav

    Peak level 99.8 %
    Extraction speed 3.1 X
    Range quality 100.0 %
    Copy CRC 68BA6DE3
    Copy OK

    No errors occurred


    AccurateRip summary

    Track 1 not present in database
    Track 2 not present in database
    Track 3 not present in database
    Track 4 not present in database
    Track 5 not present in database
    Track 6 not present in database
    Track 7 not present in database

    None of the tracks are present in the AccurateRip database

    End of status report

    ---- CUETools DB Plugin V2.1.3

    [CTDB TOCID: ZDdV61sW_FxUpKGm1r8MyuCp8qA-] disk not present in database, Submit result: ZDdV61sW_FxUpKGm1r8MyuCp8qA- has been uploaded


    ==== Log checksum 0CE08B2576C4941EECDCB22EC060846C13311529F8BCDC295C9C1E67FB55FFE4 ====



    Download links:

    Lossless (WAV):
    DP: http://depositfiles.com/files/5nkgcyn9n


    Lossy (AAC+MP3) (cred: act_yego):
    DP: http://depositfiles.com/files/qdc3snerx


    Last edited by Quas; March 14th, 2012 at 06:42 AM.
    Ignore This Signature
    ?ヾ(゚ー゚ヾ)^? さぁ・・・?

  2. The Following User Says Thank You to Quas For This Useful Post:


  3. # ADS
    Circuit advertisement
    Join Date
    Always
    Location
    Advertising world
    Posts
    Many
     

  4. #2
    ┐(´∀`)┌ヤレヤ レ Quas's Avatar
    Join Date
    Sep 2011
    Location
    京都市、京都、日本
    Posts
    699
    Thanks
    2
    Thanked 447 Times in 276 Posts
    Points: 49,478, Level: 100
    Points: 49,478, Level: 100
    Overall activity: 0%
    Overall activity: 0%
    Achievements:
    Three FriendsTagger First Class25000 Experience PointsVeteranRecommendation Second Class

    Re: [120307] ] TVアニメ「アマガミSS+ plus」Character Songs w/OST「always vol.02」/ (Amagami SS+ Character Songs with OST "always vol.02") [WAV+MP3] [2CDS]

    Lossless finally added!
    Ignore This Signature
    ?ヾ(゚ー゚ヾ)^? さぁ・・・?

  5. #3
    Junior Member
    Join Date
    Mar 2012
    Posts
    1
    Thanks
    0
    Thanked 0 Times in 0 Posts
    Points: 723, Level: 14
    Points: 723, Level: 14
    Overall activity: 0%
    Overall activity: 0%
    Achievements:
    3 months registered500 Experience Points

    Re: [120307] ] TVアニメ「アマガミSS+ plus」Character Songs w/OST「always vol.02」/ (Amagami SS+ Character Songs with OST "always vol.02") [WAV+MP3] [2CDS]

    Thanks for upload!

    Anyway the link are gone.

    Could you please reupload again?

    Thanks you.

  6. #4
    ┐(´∀`)┌ヤレヤ レ Quas's Avatar
    Join Date
    Sep 2011
    Location
    京都市、京都、日本
    Posts
    699
    Thanks
    2
    Thanked 447 Times in 276 Posts
    Points: 49,478, Level: 100
    Points: 49,478, Level: 100
    Overall activity: 0%
    Overall activity: 0%
    Achievements:
    Three FriendsTagger First Class25000 Experience PointsVeteranRecommendation Second Class

    Re: [120307] ] TVアニメ「アマガミSS+ plus」Character Songs w/OST「always vol.02」/ (Amagami SS+ Character Songs with OST "always vol.02") [WAV+MP3] [2CDS]

    Herp derp, too much removals.

    Links replaced
    Ignore This Signature
    ?ヾ(゚ー゚ヾ)^? さぁ・・・?

Thread Information

Users Browsing this Thread

There are currently 1 users browsing this thread. (0 members and 1 guests)

Tags for this Thread

Bookmarks

Posting Permissions

  • You may not post new threads
  • You may not post replies
  • You may not post attachments
  • You may not edit your posts
  •